assistive.co.uk - The Largest Bittorent System Login   |    Register
Latest Articles
Most searched
Hot torrents
Movie Torrents
View Torrent Info: The Equalizer 2 (2018) [720p] [YTS] [YIFY]
View Torrent Info: Mile 22 (2018) [720p] [YTS] [YIFY]
View Torrent Info: The Meg (2018) [720p] [YTS] [YIFY]
View Torrent Info: Papillon (2017) [720p] [YTS] [YIFY]
View Torrent Info: A-X-L (2018) [720p] [YTS] [YIFY]
View Torrent Info: The Bombing (2018) [720p] [YTS] [YIFY]
View Torrent Info: Charming (2018) [720p] [YTS] [YIFY]
View Torrent Info: Along with the Gods: The Last 49 Days (2018) [720p] [YTS] [YIFY]
View Torrent Info: Luis & the Aliens (2018) [720p] [YTS] [YIFY]
View Torrent Info: Nun (2017) [720p] [YTS] [YIFY]
Hot torrents
TV Torrents
View Torrent Info: The.Flash.2014.S05E04.HDTV.x264-SVA[eztv]
View Torrent Info: Supergirl.S04E03.HDTV.x264-SVA[eztv]
View Torrent Info: DCs.Legends.of.Tomorrow.S04E02.HDTV.x264-SVA[eztv]
View Torrent Info: The.Walking.Dead.S09E04.HDTV.x264-KILLERS[eztv]
View Torrent Info: American.Horror.Story.S08E08.WEBRip.x264-TBS[eztv]
View Torrent Info: Arrow.S07E03.HDTV.x264-SVA[eztv]
View Torrent Info: The.Good.Doctor.S02E05.HDTV.x264-KILLERS[eztv]
View Torrent Info: the.last.ship.s05e08.webrip.x264-tbs[eztv]
View Torrent Info: The.Big.Bang.Theory.S12E07.HDTV.x264-SVA[eztv]
View Torrent Info: The.Gifted.S02E05.HDTV.x264-LucidTV[eztv]
assistive.co.uk > Categories > Movies torrents > HEVC/x265 torrents


Browse Movies torrents

Lara Croft Tomb Raider The Cradle of Life (2003) (2160p BluRay x265 HEVC 10bit AAC 5.1 Joy) [UTR] torrent



Download torrent: Download Lara Croft Tomb Raider The Cradle of Life (2003) (2160p BluRay x265 HEVC 10bit AAC 5.1 Joy) [UTR] torrent Magnet link Bookmark Torrent: Lara Croft Tomb Raider The Cradle of Life (2003) (2160p BluRay x265 HEVC 10bit AAC 5.1 Joy) [UTR] Lara Croft Tomb Raider The Cradle of Life (2003) (2160p BluRay x265 HEVC 10bit AAC 5.1 Joy) [UTR] torrent | if not working, try instead: Magnet Link
Info hash: 10542995EA351ED796A3553A08DC23706348C757
Category: Categories > Movies torrents > HEVC/x265 torrents
Trackers:
7    View all torrent trackers >
Health:
 seeds: 57 ,  leechers: 25 |  Update >
Torrent language:  
Total Size: 5.30 GB
Torrent status: Added by trusted uploader Added by trusted uploader Trusted Uploader Site Friend Superman Sun
Uploader: Trusted Uploader Site Friend Superman Sun
Torrent added: 2018-06-28 06:21:55
 

Download Lara Croft Tomb Raider The Cradle of Life (2003) (2160p BluRay x265 HEVC 10bit AAC 5.1 Joy) [UTR] torrent if not working, try downloading torrent using Download Lara Croft Tomb Raider The Cradle of Life (2003) (2160p BluRay x265 HEVC 10bit AAC 5.1 Joy) [UTR] via Magnet Link




Torrent Description








Media Information

Media Information

Code:

General
Format : Matroska
Format version : Version 4 / Version 2
File size : 5.33 GiB
Duration : 1 h 57 min
Overall bit rate : 6 500 kb/s
Movie name : Lara Croft Tomb Raider The Cradle of Life 2003 (2160p x265 10bit S87 Joy)[UTR]
Encoded date : UTC 2018-06-26 01:58:17
Writing application : mkvmerge v21.0.0 ('Tardigrades Will Inherit The Earth') 64-bit
Writing library : libebml v1.3.5 + libmatroska v1.4.8
Cover : Yes
Attachments : cover.jpg
Writing frontend : StaxRip v1.7.0.6

Video
ID : 1
Format : HEVC
Format/Info : High Efficiency Video Coding
Format profile : Main [email protected]@Main
Codec ID : V_MPEGH/ISO/HEVC
Duration : 1 h 57 min
Bit rate : 6 000 kb/s
Width : 3 840 pixels
Height : 1 632 pixels
Display aspect ratio : 2.35:1
Frame rate mode : Constant
Frame rate : 23.976 (24000/1001) FPS
Color space : YUV
Chroma subsampling : 4:2:0
Bit depth : 10 bits
Bits/(Pixel*Frame) : 0.040
Stream size : 4.92 GiB (92%)
Writing library : x265 2.7+2-22c127ff05d5:[Windows][MSVC 1900][64 bit] 10bit
Encoding settings : cpuid=1173503 / frame-threads=4 / numa-pools=16 / wpp / no-pmode / no-pme / no-psnr / ssim / log-level=2 / input-csp=1 / input-res=3840x1632 / interlace=0 / total-frames=168827 / level-idc=0 / high-tier=1 / uhd-bd=0 / ref=3 / no-allow-non-conformance / no-repeat-headers / annexb / no-aud / no-hrd / info / hash=0 / no-temporal-layers / open-gop / min-keyint=23 / keyint=250 / gop-lookahead=0 / bframes=4 / b-adapt=2 / b-pyramid / bframe-bias=0 / rc-lookahead=50 / lookahead-slices=8 / scenecut=40 / radl=0 / no-intra-refresh / ctu=64 / min-cu-size=8 / no-rect / no-amp / max-tu-size=32 / tu-inter-depth=1 / tu-intra-depth=1 / limit-tu=0 / rdoq-level=1 / dynamic-rd=0.00 / ssim-rd / signhide / no-tskip / nr-intra=0 / nr-inter=0 / no-constrained-intra / strong-intra-smoothing / max-merge=2 / limit-refs=3 / no-limit-modes / me=1 / subme=2 / merange=57 / temporal-mvp / weightp / weightb / no-analyze-src-pics / deblock=0:0 / sao / no-sao-non-deblock / rd=3 / no-early-skip / rskip / no-fast-intra / no-tskip-fast / no-cu-lossless / b-intra / no-splitrd-skip / rdpenalty=0 / psy-rd=0.00 / psy-rdoq=0.00 / no-rd-refine / no-lossless / cbqpoffs=0 / crqpoffs=0 / rc=abr / bitrate=6000 / qcomp=0.60 / qpstep=4 / stats-write=0 / stats-read=2 / cplxblur=20.0 / qblur=0.5 / ipratio=1.40 / pbratio=1.30 / aq-mode=2 / aq-strength=1.00 / cutree / zone-count=0 / no-strict-cbr / qg-size=32 / no-rc-grain / qpmax=69 / qpmin=0 / no-const-vbv / sar=0 / overscan=0 / videoformat=5 / range=0 / colorprim=2 / transfer=2 / colormatrix=2 / chromaloc=0 / display-window=0 / max-cll=0,0 / min-luma=0 / max-luma=1023 / log2-max-poc-lsb=8 / vui-timing-info / vui-hrd-info / slices=1 / no-opt-qp-pps / no-opt-ref-list-length-pps / multi-pass-opt-rps / scenecut-bias=0.05 / no-opt-cu-delta-qp / no-aq-motion / no-hdr / no-hdr-opt / no-dhdr10-opt / analysis-reuse-level=5 / scale-factor=0 / refine-intra=0 / refine-inter=0 / refine-mv=0 / limit-sao / ctu-info=0 / no-lowpass-dct / refine-mv-type=0 / copy-pic=1
Default : Yes
Forced : No

Audio
ID : 2
Format : AAC
Format/Info : Advanced Audio Codec
Format profile : LC
Codec ID : A_AAC
Duration : 1 h 57 min
Bit rate : 476 kb/s
Channel(s) : 6 channels
Channel positions : Front: L C R, Side: L R, LFE
Sampling rate : 48.0 kHz
Frame rate : 46.875 FPS (1024 spf)
Compression mode : Lossy
Delay relative to video : 9 ms
Stream size : 400 MiB (7%)
Language : English
Default : Yes
Forced : No

Subtitle #1
ID : 3
Format : PGS
Muxing mode : zlib
Codec ID : S_HDMV/PGS
Codec ID/Info : Picture based subtitle format used on BDs/HD-DVDs
Duration : 1 h 44 min
Bit rate : 21.8 kb/s
Count of elements : 1602
Stream size : 16.2 MiB (0%)
Language : English
Default : No
Forced : No

Subtitle #2
ID : 4
Format : UTF-8
Codec ID : S_TEXT/UTF8
Codec ID/Info : UTF-8 Plain Text
Duration : 1 h 44 min
Bit rate : 35 b/s
Count of elements : 799
Stream size : 27.5 KiB (0%)
Language : English
Default : No
Forced : No

Subtitle #3
ID : 5
Format : VobSub
Muxing mode : zlib
Codec ID : S_VOBSUB
Codec ID/Info : Picture based subtitle format used on DVDs
Duration : 1 h 44 min
Bit rate : 6 271 b/s
Count of elements : 801
Stream size : 4.68 MiB (0%)
Language : English
Default : No
Forced : No

Subtitle #4
ID : 6
Format : VobSub
Muxing mode : zlib
Codec ID : S_VOBSUB
Codec ID/Info : Picture based subtitle format used on DVDs
Duration : 1 h 47 min
Bit rate : 7 228 b/s
Count of elements : 1015
Stream size : 5.58 MiB (0%)
Language : English
Default : No
Forced : No

Subtitle #5
ID : 7
Format : VobSub
Muxing mode : zlib
Codec ID : S_VOBSUB
Codec ID/Info : Picture based subtitle format used on DVDs
Duration : 1 h 46 min
Bit rate : 5 286 b/s
Count of elements : 747
Stream size : 4.03 MiB (0%)
Language : French
Default : No
Forced : No

Subtitle #6
ID : 8
Format : VobSub
Muxing mode : zlib
Codec ID : S_VOBSUB
Codec ID/Info : Picture based subtitle format used on DVDs
Duration : 1 h 46 min
Bit rate : 5 618 b/s
Count of elements : 703
Stream size : 4.28 MiB (0%)
Language : Spanish
Default : No
Forced : No

Subtitle #7
ID : 9
Format : UTF-8
Codec ID : S_TEXT/UTF8
Codec ID/Info : UTF-8 Plain Text
Duration : 1 h 48 min
Bit rate : 19 b/s
Count of elements : 909
Stream size : 15.8 KiB (0%)
Language : Arabic
Default : No
Forced : No

Subtitle #8
ID : 10
Format : UTF-8
Codec ID : S_TEXT/UTF8
Codec ID/Info : UTF-8 Plain Text
Duration : 1 h 46 min
Bit rate : 32 b/s
Count of elements : 697
Stream size : 25.3 KiB (0%)
Language : Danish
Default : No
Forced : No

Subtitle #9
ID : 11
Format : UTF-8
Codec ID : S_TEXT/UTF8
Codec ID/Info : UTF-8 Plain Text
Duration : 1 h 56 min
Bit rate : 25 b/s
Count of elements : 598
Stream size : 21.8 KiB (0%)
Language : Dutch
Default : No
Forced : No

Subtitle #10
ID : 12
Format : UTF-8
Codec ID : S_TEXT/UTF8
Codec ID/Info : UTF-8 Plain Text
Duration : 1 h 44 min
Bit rate : 56 b/s
Count of elements : 684
Stream size : 43.2 KiB (0%)
Language : Persian
Default : No
Forced : No

Subtitle #11
ID : 13
Format : UTF-8
Codec ID : S_TEXT/UTF8
Codec ID/Info : UTF-8 Plain Text
Duration : 1 h 42 min
Bit rate : 61 b/s
Count of elements : 700
Stream size : 46.3 KiB (0%)
Language : Greek
Default : No
Forced : No

Subtitle #12
ID : 14
Format : UTF-8
Codec ID : S_TEXT/UTF8
Codec ID/Info : UTF-8 Plain Text
Duration : 1 h 47 min
Bit rate : 36 b/s
Count of elements : 686
Stream size : 28.5 KiB (0%)
Language : Indonesian
Default : No
Forced : No

Subtitle #13
ID : 15
Format : UTF-8
Codec ID : S_TEXT/UTF8
Codec ID/Info : UTF-8 Plain Text
Duration : 1 h 46 min
Bit rate : 32 b/s
Count of elements : 696
Stream size : 25.5 KiB (0%)
Language : Norwegian
Default : No
Forced : No

Subtitle #14
ID : 16
Format : UTF-8
Codec ID : S_TEXT/UTF8
Codec ID/Info : UTF-8 Plain Text
Duration : 1 h 46 min
Bit rate : 33 b/s
Count of elements : 701
Stream size : 26.0 KiB (0%)
Language : Serbian
Default : No
Forced : No

Subtitle #15
ID : 17
Format : UTF-8
Codec ID : S_TEXT/UTF8
Codec ID/Info : UTF-8 Plain Text
Duration : 1 h 46 min
Bit rate : 31 b/s
Count of elements : 686
Stream size : 24.5 KiB (0%)
Language : Swedish
Default : No
Forced : No

Subtitle #16
ID : 18
Format : UTF-8
Codec ID : S_TEXT/UTF8
Codec ID/Info : UTF-8 Plain Text
Duration : 1 h 47 min
Bit rate : 82 b/s
Count of elements : 713
Stream size : 65.2 KiB (0%)
Language : Thai
Default : No
Forced : No

Subtitle #17
ID : 19
Format : UTF-8
Codec ID : S_TEXT/UTF8
Codec ID/Info : UTF-8 Plain Text
Duration : 1 h 53 min
Bit rate : 43 b/s
Count of elements : 685
Stream size : 36.0 KiB (0%)
Language : Vietnamese
Default : No
Forced : No

Menu
00:00:00.000 : en:Chapter 1
00:03:06.895 : en:Chapter 2
00:06:43.194 : en:Chapter 3
00:11:17.760 : en:Chapter 4
00:16:55.139 : en:Chapter 5
00:20:41.240 : en:Chapter 6
00:24:15.787 : en:Chapter 7
00:27:44.079 : en:Chapter 8
00:31:54.412 : en:Chapter 9
00:34:42.872 : en:Chapter 10
00:37:15.149 : en:Chapter 11
00:42:39.265 : en:Chapter 12
00:47:59.710 : en:Chapter 13
00:51:12.277 : en:Chapter 14
00:56:10.533 : en:Chapter 15
01:00:09.647 : en:Chapter 16
01:06:28.985 : en:Chapter 17
01:10:03.199 : en:Chapter 18
01:14:33.969 : en:Chapter 19
01:19:35.353 : en:Chapter 20
01:24:03.288 : en:Chapter 21
01:28:51.159 : en:Chapter 22
01:35:15.167 : en:Chapter 23
01:40:19.763 : en:Chapter 24
01:45:33.076 : en:Chapter 25
01:47:46.251 : en:Chapter 26



Source Information

Code:

Release:
Lara.Croft.Tomb.Raider.The.Cradle.of.Life.2003.2160p.BluRay.x265.10bit.SDR.DTS-HD.MA.5.1-SWTYBLZ.torrent (139.86 KBs)




#UTRCorp -> To avoid fakes, ALWAYS check that the torrent was added on assistive.co.uk by UTRCorp

http://assistive.co.uk/



Download Lara Croft Tomb Raider The Cradle of Life (2003) (2160p BluRay x265 HEVC 10bit AAC 5.1 Joy) [UTR] torrent


Comments (please add your comment)
No comments



Home - Browse Torrents - Upload Torrent - Stat - Forum - FAQ - Login
assistive.co.uk is in compliance with copyrights
2006-2018 assistive.co.uk
SitemapChantal Lauby | Copyright | Baby Doll Clothes Suit Zapf Doll Jumpsuit Suit Doll Nightdress Sleeping Clothes