assistive.co.uk - The Largest Bittorent System Login   |    Register
Latest Articles
Most searched
Hot torrents
Movie Torrents
View Torrent Info: Mowgli: Legend of the Jungle (2018) [720p] [YTS] [YIFY]
View Torrent Info: Goosebumps 2: Haunted Halloween (2018) [720p] [YTS] [YIFY]
View Torrent Info: Assassination Nation (2018) [720p] [YTS] [YIFY]
View Torrent Info: The Mermaid: Lake of the Dead (2018) [720p] [YTS] [YIFY]
View Torrent Info: Asher (2018) [720p] [YTS] [YIFY]
View Torrent Info: Elizabeth Harvest (2018) [720p] [YTS] [YIFY]
View Torrent Info: Under the Silver Lake (2018) [720p] [YTS] [YIFY]
View Torrent Info: Alla vet (2018) [720p] [YTS] [YIFY]
View Torrent Info: Cinderella: The Enchanted Beginning (2018) [720p] [YTS] [YIFY]
View Torrent Info: The Festival (2018) [720p] [YTS] [YIFY]
Hot torrents
TV Torrents
View Torrent Info: The.Flash.2014.S05E08.HDTV.x264-KILLERS[eztv]
View Torrent Info: The.Big.Bang.Theory.S12E10.HDTV.x264-SVA[eztv]
View Torrent Info: The.Flash.2014.S05E09.HDTV.x264-SVA[eztv]
View Torrent Info: Arrow.S07E09.HDTV.x264-SVA[eztv]
View Torrent Info: Vikings.S05E12.WEBRip.x264-ION10[eztv]
View Torrent Info: DCs.Legends.of.Tomorrow.S04E08.HDTV.x264-SVA[eztv]
View Torrent Info: Supernatural.S14E08.HDTV.x264-SVA[eztv]
View Torrent Info: the.gifted.s02e09.web.x264-tbs[eztv]
View Torrent Info: Young.Sheldon.S02E10.HDTV.x264-KILLERS[eztv]
View Torrent Info: lethal.weapon.s03e09.web.x264-tbs[eztv]
assistive.co.uk > Categories > Movies torrents > Dubbed /Dual Audio torrents


Browse Movies torrents

Lara Croft Tomb Raider The Cradle Of Life (2003) 720p BRrip x264 [Dual Audio] [English 5.1 + Hindi 2.0] - Ranvijay torrent



Download torrent: Download Lara Croft Tomb Raider The Cradle Of Life (2003) 720p BRrip x264 [Dual Audio] [English 5.1 + Hindi 2.0] - Ranvijay torrent Magnet link Bookmark Torrent: Lara Croft Tomb Raider The Cradle Of Life (2003) 720p BRrip x264 [Dual Audio] [English 5.1 + Hindi 2.0] - Ranvijay Lara Croft Tomb Raider The Cradle Of Life (2003) 720p BRrip x264 [Dual Audio] [English 5.1 + Hindi 2.0] - Ranvijay torrent | if not working, try instead: Magnet Link
Info hash: A233065E2413C045C935CA23EAE32FE5D4387556
Category: Categories > Movies torrents > Dubbed /Dual Audio torrents
Trackers:
18    View all torrent trackers >
Health:
 seeds: 16 ,  leechers: 74 |  Update >
Total Size: 3.20 GB
Torrent status: Added by trusted uploader Added by trusted uploader Trusted Uploader Site Friend Superman Sun
Uploader: Trusted Uploader Site Friend Superman Sun
Torrent added: 2017-09-09 22:20:46
 

Download Lara Croft Tomb Raider The Cradle Of Life (2003) 720p BRrip x264 [Dual Audio] [English 5.1 + Hindi 2.0] - Ranvijay torrent if not working, try downloading torrent using Download Lara Croft Tomb Raider The Cradle Of Life (2003) 720p BRrip x264 [Dual Audio] [English 5.1 + Hindi 2.0] - Ranvijay via Magnet Link




Torrent Description



[/img]



Format : Matroska
Format version : Version 4 / Version 2
File size : 3.12 GiB
Duration : 1 h 57 min
Overall bit rate : 3 807 kb/s

Video
ID : 1
Format : AVC
Format/Info : Advanced Video Codec
Format profile : [email protected]
Format settings, CABAC : Yes
Format settings, RefFrames : 5 frames
Codec ID : V_MPEG4/ISO/AVC
Duration : 1 h 57 min
Bit rate : 3 200 kb/s
Width : 1 280 pixels
Height : 544 pixels
Display aspect ratio : 2.35:1
Frame rate mode : Constant
Frame rate : 23.976 (24000/1001) FPS
Color space : YUV
Chroma subsampling : 4:2:0
Bit depth : 8 bits
Scan type : Progressive
Bits/(Pixel*Frame) : 0.192
Stream size : 2.62 GiB (84%)
Default : Yes
Forced : No

Audio #1
ID : 2
Format : AC-3
Format/Info : Audio Coding 3
Format settings, Endianness : Big
Codec ID : A_AC3
Duration : 1 h 57 min
Bit rate mode : Constant
Bit rate : 384 kb/s
Channel(s) : 6 channels
Channel positions : Front: L C R, Side: L R, LFE
Sampling rate : 48.0 kHz
Frame rate : 31.250 FPS (1536 SPF)
Bit depth : 16 bits
Compression mode : Lossy
Stream size : 322 MiB (10%)
Language : English
Service kind : Complete Main
Default : No
Forced : No

Audio #2
ID : 3
Format : AC-3
Format/Info : Audio Coding 3
Mode : Dolby Digital
Format settings, Endianness : Big
Codec ID : A_AC3
Duration : 1 h 57 min
Bit rate mode : Constant
Bit rate : 224 kb/s
Channel(s) : 2 channels
Channel positions : Front: L R
Sampling rate : 48.0 kHz
Frame rate : 31.250 FPS (1536 SPF)
Bit depth : 16 bits
Compression mode : Lossy
Delay relative to video : 24 ms
Stream size : 188 MiB (6%)
Language : Hindi
Service kind : Complete Main
Default : Yes
Forced : No




















#TheFighter -> To avoid fakes, ALWAYS check that the torrent was added on assistive.co.uk by TheFighter

http://assistive.co.uk/



Download Lara Croft Tomb Raider The Cradle Of Life (2003) 720p BRrip x264 [Dual Audio] [English 5.1 + Hindi 2.0] - Ranvijay torrent


Comments (please add your comment)
No comments



Home - Browse Torrents - Upload Torrent - Stat - Forum - FAQ - Login
assistive.co.uk is in compliance with copyrights
2006-2018 assistive.co.uk
SitemapGUIDA CAMBIO DNS | Más detalles | Nowhere Mind