assistive.co.uk - The Largest Bittorent System Login   |    Register
Latest Articles
Most searched
Hot torrents
Movie Torrents
View Torrent Info: Incredibles 2 (2018) [720p] [YTS] [YIFY]
View Torrent Info: BlacKkKlansman (2018) [720p] [YTS] [YIFY]
View Torrent Info: Adam Sandler: 100% Fresh (2018) [720p] [YTS] [YIFY]
View Torrent Info: Juliet, Naked (2018) [720p] [YTS] [YIFY]
View Torrent Info: The Dark (2018) [720p] [YTS] [YIFY]
View Torrent Info: Satyameva Jayate (2018) [720p] [YTS] [YIFY]
View Torrent Info: An Interview with God (2018) [720p] [YTS] [YIFY]
View Torrent Info: Galveston (2018) [720p] [YTS] [YIFY]
View Torrent Info: The Night Comes for Us (2018) [720p] [YTS] [YIFY]
View Torrent Info: Malicious (2018) [720p] [YTS] [YIFY]
Hot torrents
TV Torrents
View Torrent Info: The.Walking.Dead.S09E03.HDTV.x264-SVA[eztv]
View Torrent Info: Supergirl.S04E02.HDTV.x264-SVA[eztv]
View Torrent Info: Blindspot.S04E02.HDTV.x264-SVA[eztv]
View Torrent Info: How.to.Get.Away.with.Murder.S05E04.HDTV.x264-KILLERS[eztv]
View Torrent Info: Arrow.S07E02.HDTV.x264-SVA[eztv]
View Torrent Info: DCs.Legends.of.Tomorrow.S04E01.HDTV.x264-SVA[eztv]
View Torrent Info: The.Flash.2014.S05E03.HDTV.x264-SVA[eztv]
View Torrent Info: Titans.2018.S01E02.WEB.x264-PHOENiX[eztv]
View Torrent Info: The.Big.Bang.Theory.S12E05.HDTV.x264-SVA[eztv]
View Torrent Info: the.last.ship.s05e07.webrip.x264-tbs[eztv]
assistive.co.uk > Categories > Movies torrents > MP4 torrents


Browse Movies torrents

Lara Croft- Tomb Raider- The Cradle of Life(2003)MPEG-4[DaScubaDude] torrent



Download torrent: Download Lara Croft- Tomb Raider- The Cradle of Life(2003)MPEG-4[DaScubaDude] torrent Magnet link Bookmark Torrent: Lara Croft- Tomb Raider- The Cradle of Life(2003)MPEG-4[DaScubaDude] Lara Croft- Tomb Raider- The Cradle of Life(2003)MPEG-4[DaScubaDude] torrent | if not working, try instead: Magnet Link
Info hash: DDDDF1CDA9EE85B60CE152F68C927CFB95CBD4FC
Category: Categories > Movies torrents > MP4 torrents
Trackers:
5    View all torrent trackers >
Health:
 seeds: 0 ,  leechers: 1 |  Update >
Torrent language:  
Total Size: 1.20 GB
Torrent status: Added by trusted uploader Added by trusted uploader Trusted Uploader Site Friend Superman Sun
Uploader: Trusted Uploader Site Friend Superman Sun
Torrent added: 2016-06-05 00:00:00
 

Download Lara Croft- Tomb Raider- The Cradle of Life(2003)MPEG-4[DaScubaDude] torrent if not working, try downloading torrent using Download Lara Croft- Tomb Raider- The Cradle of Life(2003)MPEG-4[DaScubaDude] via Magnet Link




Torrent Description


Lara Croft Tomb Raider: The Cradle of Life (2003)
PG-13 | 1h 57min | Action, Adventure, Fantasy | 25 July 2003 (USA)
Adventuress Lara Croft goes on a quest to save the mythical Pandora's Box before an evil scientist and recruits a former Marine turned mercenary to assist her.
Director: Jan de Bont
Writers: Dean Georgaris (screenplay), Steven E. de Souza (story) |
Stars: Angelina Jolie, Gerard Butler, Chris Barrie

General
Complete name : TombRaiderCradleofLife\TOMB_RAIDER_CRADLE_OF_LIFE_Title1.mp4
Format : MPEG-4
Format profile : Base Media
Codec ID : isom (isom/iso2/avc1/mp41)
File size : 1.20 GiB
Duration : 1h 57mn
Overall bit rate mode : Variable
Overall bit rate : 1 468 Kbps
Movie name : TOMB_RAIDER_CRADLE_OF_LIFE
Genre : Action
Writing application : Lavf54.6.100

Video
ID : 1
Format : AVC
Format/Info : Advanced Video Codec
Format profile : [email protected]
Format settings, CABAC : No
Format settings, ReFrames : 6 frames
Codec ID : avc1
Codec ID/Info : Advanced Video Coding
Duration : 1h 57mn
Bit rate : 1 195 Kbps
Width : 720 pixels
Height : 404 pixels
Display aspect ratio : 16:9
Frame rate mode : Constant
Frame rate : 29.970 (30000/1001) fps
Color space : YUV
Chroma subsampling : 4:2:0
Bit depth : 8 bits
Scan type : Progressive
Bits/(Pixel*Frame) : 0.137
Stream size : 1 002 MiB (81%)

Audio
ID : 2
Format : AAC
Format/Info : Advanced Audio Codec
Format profile : LC
Codec ID : 40
Duration : 1h 57mn
Bit rate mode : Variable
Bit rate : 265 Kbps
Maximum bit rate : 289 Kbps
Channel(s) : 2 channels
Channel(s)_Original : 6 channels
Channel positions : Front: L C R, Side: L R, LFE
Sampling rate : 44.1 KHz
Frame rate : 43.066 fps (1024 spf)
Compression mode : Lossy
Stream size : 223 MiB (18%)
Default : Yes
Alternate group : 1



#Dascubadude -> To avoid fakes, ALWAYS check that the torrent was added on assistive.co.uk by Dascubadude

http://assistive.co.uk/



Download Lara Croft- Tomb Raider- The Cradle of Life(2003)MPEG-4[DaScubaDude] torrent


Comments (please add your comment)
No comments



Home - Browse Torrents - Upload Torrent - Stat - Forum - FAQ - Login
assistive.co.uk is in compliance with copyrights
2006-2018 assistive.co.uk
SitemapGhost Stories | Bastards | Beste Ergebnisse